Beautiful RoadSide Lady Picked Up & Raped Brutally

Beautiful RoadSide Lady Picked Up & Raped Brutally

t2528 roadside Beautiful RoadSide Lady Picked Up & Raped Brutally

General
Complete name : Roadside.wmv
Format : Windows Media
File size : 589 MiB
Duration : 31mn 24s
Overall bit rate mode : Variable
Overall bit rate : 2 624 Kbps
Maximum Overall bit rate : 3 064 Kbps
Encoded date : UTC 2008-09-22 05:25:30.984
Application : Windows Movie Maker 2.1.4026.0

Video
ID : 2
Format : VC-1
Format profile : MP@ML
Codec ID : WMV3
Codec ID/Info : Windows Media Video 9
Codec ID/Hint : WMV3
Description of the codec : Windows Media Video 9
Duration : 31mn 24s
Bit rate mode : Variable
Bit rate : 2 441 Kbps
Width : 720 pixels
Height : 576 pixels
Display aspect ratio : 5:4
Frame rate : 25.000 fps
Standard : PAL
Bit depth : 8 bits
Scan type : Progressive
Compression mode : Lossy
Bits/(Pixel*Frame) : 0.235
Stream size : 548 MiB (93%)

Audio

ID : 1
Format : WMA
Format version : Version 2
Codec ID : 161
Codec ID/Info : Windows Media Audio
Description of the codec : Windows Media Audio 9.1 – VBR Quality 75, 44 kHz, stereo 1-pass VBR
Duration : 31mn 24s
Bit rate mode : Variable
Bit rate : 159 Kbps
Channel(s) : 2 channels
Sampling rate : 44.1 KHz
Bit depth : 16 bits
Stream size : 35.7 MiB (6%)

Download Link:

Roadside.part1.rar
Roadside.part2.rar

Video Downloaded: (170)

00468x0060 02 Beautiful RoadSide Lady Picked Up & Raped Brutally

Related posts:

Leave a Reply